<?xml version="1.0" standalone="no"?>
<!DOCTYPE svg PUBLIC "-//W3C//DTD SVG 1.1//EN" "http://www.w3.org/Graphics/SVG/1.1/DTD/svg11.dtd" >
<svg xmlns="http://www.w3.org/2000/svg">
<metadata>Generated by IcoMoon</metadata>
<defs>
<font id="icomoon" horiz-adv-x="1024">
<font-face units-per-em="1024" ascent="960" descent="-64" />
<missing-glyph horiz-adv-x="1024" />
<glyph unicode="&#x20;" horiz-adv-x="512" d="" />
<glyph unicode="&#xe900;" glyph-name="accordion" d="M102.4 789.333h170.667v-170.667h-170.667v170.667zM102.4 516.267h170.667v-170.667h-170.667v170.667zM375.467 789.333h546.133v-170.667h-546.133v170.667zM375.467 516.267h546.133v-170.667h-546.133v170.667zM102.4 243.2h170.667v-170.667h-170.667v170.667zM375.467 243.2h546.133v-170.667h-546.133v170.667z" />
<glyph unicode="&#xe901;" glyph-name="anchor" d="M995.598 932.324c12.749-11.621 19.126-26.434 19.126-44.429s-6.376-32.996-19.126-44.995l-128.23-128.23c41.241-59.989 58.114-127.668 50.617-203.032-7.504-75.368-37.871-139.293-91.11-191.785l-187.849-187.846c-60.74-61.494-134.98-92.238-222.714-92.238-63.743 0-121.11 17.247-172.1 51.745l-128.234-127.109c-12.746-12.749-27.744-19.122-44.991-19.122-15.749 0-29.996 6.373-42.746 19.122-12.002 12.749-18.001 27.559-18.001 44.432s5.999 31.309 17.998 43.304l127.109 128.234c-41.995 59.989-59.053 127.668-51.182 203.032 7.878 75.368 38.433 139.666 91.676 192.913l186.725 186.718c58.488 61.494 132.731 92.238 222.714 92.238 64.487 0 122.234-17.247 173.225-51.745l127.109 128.237c11.244 11.995 25.869 17.991 43.867 17.991 17.994 0 33.37-5.811 46.119-17.436zM793.127 542.574c0 28.491-6.376 55.488-19.126 80.99l-95.608-96.739c-12.749-11.995-26.997-17.998-42.742-17.998-17.247 0-32.245 5.999-44.991 17.998-12.749 11.999-19.126 27-19.126 44.995 0 18.001 6.376 32.993 19.126 44.995l95.608 94.483c-27 11.995-53.993 17.994-80.99 17.994-54.741 0-100.109-17.994-136.105-53.99l-184.472-188.97c-36.746-36.746-55.118-80.99-55.118-132.731 0-28.498 5.999-55.118 18.001-79.866l93.356 93.359c11.999 11.995 26.808 18.001 44.429 18.001 17.624 0 31.683-6.003 42.18-18.001 11.999-12.746 18.001-27.744 18.001-44.995 0-17.244-5.999-32.242-18.001-44.988l-89.986-92.235c26.997-12.746 53.243-19.122 78.741-19.122 52.492 0 97.113 18.368 133.852 55.111l187.849 187.849c36.75 36.746 55.121 81.364 55.121 133.859z" />
<glyph unicode="&#xe902;" glyph-name="block" d="M938.667 137.716v617.154l-187.404-187.404-48.116 48.116 173.75 173.75h-726.381l173.75-173.75-48.116-48.116-190.817 190.817v-623.981l190.817 190.817 48.116-48.116-170.337-170.337h719.554l-170.337 170.337 48.116 48.116 187.404-187.404zM0 874.667h1024v-853.333h-1024v853.333z" />
<glyph unicode="&#xe903;" glyph-name="button" d="M791.893 384.649l-300.261-25.685 170.837-375.006-113.889-51.371-165.663 380.143-212.251-200.346v847.616z" />
<glyph unicode="&#xe904;" glyph-name="cms-video" d="M1024 703.449v-510.687h-88.249l-206.3 204.633v102.288l206.3 203.769 88.249-0.003zM655.121 209.498c0-9.688-7.829-17.461-17.485-17.461h-620.148c-9.659 0-17.488 7.773-17.488 17.461v477.103c0 9.623 7.829 17.399 17.488 17.399h620.148c9.655 0 17.485-7.776 17.485-17.399v-477.103z" />
<glyph unicode="&#xe905;" glyph-name="code" d="M307.2 164.693l-307.2 235.986v77.046l307.2 267.235v-129.307l-204.779-170.793 204.779-151.397v-128.769zM723.627 874.667l-305.975-853.333h-117.278l305.975 853.333h117.278zM716.8 293.741l201.366 151.136-201.366 170.499v129.084l307.2-266.774v-76.913l-307.2-235.578v128.546z" />
<glyph unicode="&#xe906;" glyph-name="column" d="M870.941 788.237v-680.473h-338.353v680.473h338.353zM814.549 724.937h-222.181v-558.395h222.181v558.395zM476.196 788.237v-680.473h-316.311v680.473h316.311z" />
<glyph unicode="&#xe907;" glyph-name="columns" d="M938.667 874.658v-853.325h-853.333v853.333l853.333-0.009zM471.040 789.333h-300.373v-682.667h300.373v682.667zM853.333 789.333h-300.373v-682.667h300.373v682.667z" />
<glyph unicode="&#xe908;" glyph-name="copy" d="M793.096 31.32v655.079h-512.669v-655.079h512.669zM793.096 778.379c50.384 0 94.224-41.644 94.224-92.027v-655.079c0-50.384-43.84-94.224-94.224-94.224h-512.669c-50.384 0-94.224 43.84-94.224 94.224v655.079c0 50.384 43.84 92.027 94.224 92.027h512.669zM652.883 966.827v-94.224h-560.855v-655.079h-92.027v655.079c0 50.384 41.644 94.224 92.027 94.224h560.855z" />
<glyph unicode="&#xe909;" glyph-name="divider" d="M0 721.067h1024v-136.533h-1024v136.533zM0 308.053h1024v-136.533h-1024v136.533z" />
<glyph unicode="&#xe90a;" glyph-name="banner" d="M85.333 789.333h856.747v-686.080h-856.747v686.080zM170.667 704v-344.747h682.667v344.747h-682.667zM300.373 277.333v-85.333h426.667v85.333h-426.667z" />
<glyph unicode="&#xe90b;" glyph-name="fullscreen-exit" d="M341.246 192.336l-127.065-127.333-84.476 84.476 127.065 127.333-85.851 85.851h256v-256l-85.673 85.673zM682.811 703.856l127.627 128.485 84.476-84.476-127.627-128.485 86.047-86.047h-256v256l85.478-85.478z" />
<glyph unicode="&#xe90c;" glyph-name="fullscreen" d="M256.34 276.294l127.065 127.333 84.476-84.476-127.065-127.333 85.851-85.851h-256v256l85.673-85.673zM768.47 618.811l-127.627-128.485-84.476 84.476 127.627 128.485-86.047 86.047h256v-256l-85.478 85.478z" />
<glyph unicode="&#xe90d;" glyph-name="heading" d="M452.72 107.13h-295.092v37.008c11.038 5.843 23.86 11.362 38.469 16.556s28.405 9.090 41.391 11.687v551.228c-15.582 2.597-30.515 6.493-44.799 11.687s-25.971 10.713-35.060 16.556v37.008h295.092v-37.008c-9.739-6.493-20.614-12.336-32.626-17.53s-24.185-8.765-36.521-10.713v-235.684h258.084v235.684c-14.284 2.597-27.107 6.493-38.469 11.687s-21.588 10.713-30.678 16.556v37.008h295.092v-37.008c-11.038-7.142-23.698-12.985-37.982-17.53s-28.243-8.116-41.878-10.713v-551.228c14.933-2.597 29.379-6.493 43.339-11.687s26.133-10.713 36.521-16.556v-37.008h-295.092v37.008c9.739 5.843 20.452 11.362 32.139 16.556s24.023 9.090 37.008 11.687v252.24h-258.084v-252.24c12.985-2.597 24.997-6.168 36.034-10.713s22.075-10.388 33.113-17.53v-37.008z" />
<glyph unicode="&#xe90e;" glyph-name="image" d="M88.747 789.333h849.92v-638.293h-849.92v638.293zM301.328 448.68l-171.621-212.306h761.173l-268.798 348.16-199.729-233.482-121.025 97.628zM300.373 533.333c47.128 0 85.333 38.205 85.333 85.333s-38.205 85.333-85.333 85.333c-47.128 0-85.333-38.205-85.333-85.333s38.205-85.333 85.333-85.333z" />
<glyph unicode="&#xe90f;" glyph-name="map" d="M510.268 881.462c-159.279 0-288.401-130.829-288.401-292.407 0-143.325 124.445-329.861 223.327-485.718 74.908-118.093 56.255-118.778 130.171-0.026 96.998 155.902 223.355 342.433 223.355 485.689 0.003 161.541-129.122 292.494-288.458 292.494zM508.587 448.030c-79.122 0-143.36 64.945-143.36 145.067 0 80.163 64.229 145.037 143.36 145.037 79.17 0 143.36-64.918 143.36-145.067s-64.181-145.067-143.36-145.067z" />
<glyph unicode="&#xe910;" glyph-name="newsletter" d="M512.253 403.985v-0.012l-508.266 385.361c0 0 1019.327-0.337 1020.013-0.39l-511.747-384.959zM529.593 277.832l490.413 373.879v-545.043h-1020.006v529.63l493.793-358.465h35.8z" />
<glyph unicode="&#xe911;" glyph-name="products" d="M890.242 729.833l-0.010-0.023-142.918-84.493-378.473 228.782 142.67 85.9 378.73-230.167zM656.432 591.404l-0.003-0.026-139.962-85.981-378.473 228.782 143.081 87.359 375.357-230.135zM562.496 427.795l375.614 226.399v-434.091l-375.614-226.077v433.769zM85.333 220.104l375.614-226.077v433.769l-375.614 226.399v-434.091z" />
<glyph unicode="&#xe912;" glyph-name="row" d="M88.747 690.347h846.507v-494.933h-846.507v494.933zM167.253 615.253v-344.747h692.907v344.747h-692.907z" />
<glyph unicode="&#xe913;" glyph-name="slider" d="M0 874.667h1024v-597.333h-1024v597.333zM278.884 30.802c-39.456 0-71.442 31.986-71.442 71.442s31.986 71.442 71.442 71.442c39.456 0 71.442-31.986 71.442-71.442s-31.986-71.442-71.442-71.442zM513.622 30.802c-39.456 0-71.442 31.986-71.442 71.442s31.986 71.442 71.442 71.442c39.456 0 71.442-31.986 71.442-71.442s-31.986-71.442-71.442-71.442zM744.957 30.802c-39.456 0-71.442 31.986-71.442 71.442s31.986 71.442 71.442 71.442c39.456 0 71.442-31.986 71.442-71.442s-31.986-71.442-71.442-71.442zM95.256 786.238v-418.445h840.292v418.445h-840.292z" />
<glyph unicode="&#xe914;" glyph-name="special-characters" d="M818.956 335.737c0-69.17-26.403-125.044-79.21-167.624s-118.071-66.473-195.794-71.679v-156.747h-55.224v156.747c-78.467 1.488-145.404 19.43-200.814 53.829s-83.115 74.282-83.115 119.652c0 26.403 7.995 48.716 23.986 66.938s38.117 27.333 66.38 27.333c29.378 0 52.714-7.716 70.006-23.149s25.938-36.351 25.938-62.754c0-18.966-3.161-38.024-9.483-57.176s-11.528-34.12-15.619-44.904c10.041-5.206 26.682-11.9 49.925-20.081s47.507-12.272 72.795-12.272v250.46c-5.206 0.744-10.227 1.395-15.061 1.952s-10.413 1.209-16.735 1.952c-71.401 6.694-127.74 28.263-169.018 64.707s-61.918 84.044-61.918 142.801c0 26.032 4.834 51.505 14.503 76.421s24.544 48.158 44.625 69.727c20.453 22.313 47.507 40.999 81.162 56.061s74.468 24.079 122.441 27.054v121.604h55.224v-121.604c76.235-2.975 137.966-18.873 185.195-47.693s70.843-64.428 70.843-106.822c0-25.288-7.716-46.764-23.149-64.428s-36.723-26.496-63.87-26.496c-28.263 0-50.575 7.437-66.938 22.313s-24.544 34.956-24.544 60.244c0 17.478 2.882 34.585 8.646 51.319s10.877 31.795 15.34 45.183c-10.041 5.206-24.079 9.483-42.115 12.83s-37.838 5.392-59.407 6.136v-228.147c5.578-0.372 12.644-1.302 21.197-2.789s15.991-2.603 22.313-3.347c76.235-11.156 133.876-35.328 172.923-72.516s58.571-85.532 58.571-145.032zM488.729 564.441v223.127c-42.394-4.463-74.84-16.92-97.339-37.374s-33.748-44.997-33.748-73.632c0-33.097 9.204-58.199 27.612-75.305s45.090-28.263 80.047-33.469c5.578-0.744 9.762-1.395 12.551-1.952s6.415-1.023 10.877-1.395zM688.427 269.914c0 30.866-9.111 55.875-27.333 75.026s-47.042 32.446-86.462 39.884c-4.091 0.744-8.925 1.488-14.503 2.231s-10.97 1.488-16.177 2.231v-245.439c50.948 4.834 87.763 18.873 110.448 42.115s34.027 51.226 34.027 83.951z" />
<glyph unicode="&#xe915;" glyph-name="tabs" d="M85.333 837.12h307.2v-273.067h-307.2v273.067zM464.213 837.12h201.387v-201.387h-201.387v201.387zM737.28 837.12h201.387v-201.387h-201.387v201.387zM85.333 564.053h853.333v-505.173h-853.333v505.173z" />
<glyph unicode="&#xe916;" glyph-name="text" d="M372.164 18.332h-297.071v45.703c12.829 8.018 26.66 15.034 41.494 21.048s29.466 10.624 43.899 13.831l310.301 775.753h89.001l301.882-775.753c16.036-3.207 32.072-7.818 48.109-13.831s30.068-13.029 42.095-21.048v-45.703h-376.45v45.703c15.234 7.216 31.671 14.032 49.311 20.446s34.478 11.225 50.514 14.433l-69.758 191.232h-267.003l-70.96-191.232c36.884-4.811 71.762-16.437 104.636-34.879v-45.703zM367.354 368.323h212.881l-78.177 229.719-22.852 103.434h-2.405l-26.46-105.839-82.987-227.314z" />
<glyph unicode="&#xe917;" glyph-name="variable" d="M176.398 50.201c-24.474 16.899-47.054 35.254-67.741 55.067s-38.605 41.664-53.756 65.556c-15.151 23.892-26.951 50.259-35.4 79.104s-12.674 60.748-12.674 95.712c0 65.848 10.635 125.43 31.904 178.749s48.511 100.81 81.726 142.475c33.215 41.665 70.072 77.501 110.571 107.512s79.687 54.338 117.564 72.986l20.104-27.096c-29.136-24.474-58.126-52.736-86.971-84.786s-55.067-67.741-78.667-107.075c-23.6-39.334-42.684-82.454-57.252-129.364s-21.852-97.168-21.852-150.778c0-26.222 1.457-51.133 4.37-74.734s7.867-46.326 14.859-68.178c6.993-21.852 16.025-43.121 27.096-63.808s24.765-41.519 41.082-62.497l-34.963-28.845zM461.347 410.321c-11.654-13.403-24.183-27.97-37.585-43.704s-23.891-30.884-31.467-45.452c-0.583-4.662-0.874-10.78-0.874-18.356s0.291-15.442 0.874-23.6c0.583-8.158 1.311-15.879 2.185-23.163s1.894-12.674 3.059-16.17c-9.906-4.079-21.415-6.993-34.526-8.741s-26.077-2.622-38.896-2.622c-12.82 0-24.765 0.874-35.837 2.622s-19.812 4.662-26.222 8.741c5.244 17.482 15.296 36.711 30.156 57.689s31.467 41.519 49.822 61.623c18.356 20.104 37.003 39.042 55.941 56.815s35.109 31.904 48.511 42.393l-53.319 145.097-60.311 6.993v29.719c8.158 4.662 17.919 9.323 29.282 13.985s23.163 8.741 35.4 12.237c12.237 3.496 24.62 6.41 37.148 8.741s23.746 3.496 33.652 3.496c15.151 0 26.659-3.933 34.526-11.8s13.84-18.21 17.919-31.030l39.334-138.104c11.072 11.654 22.726 25.64 34.963 41.956s21.561 31.175 27.971 44.578c0.583 4.079 0.728 9.906 0.437 17.482s-0.874 15.588-1.748 24.037c-0.874 8.449-2.040 16.316-3.496 23.6s-2.477 12.674-3.059 16.17c21.561 7.575 45.161 11.363 70.8 11.363 11.654 0 23.017-1.020 34.089-3.059s19.812-4.807 26.222-8.304c-5.244-17.482-15.005-36.711-29.282-57.689s-30.156-41.373-47.637-61.185c-17.482-19.813-35.109-38.022-52.882-54.63s-32.195-29.282-43.267-38.022l57.689-152.964 60.311-6.993v-29.719c-5.827-4.079-13.985-8.304-24.474-12.674s-21.852-8.449-34.089-12.237c-12.237-3.788-24.765-6.993-37.585-9.615s-24.474-3.933-34.963-3.933c-15.151 0-27.096 3.788-35.837 11.363s-15.151 17.773-19.23 30.593l-43.704 142.475zM658.015 79.045c26.222 20.978 53.756 47.2 82.6 78.667s55.067 67.741 78.667 108.823c23.6 41.082 43.121 86.242 58.563 135.482s23.163 102.413 23.163 159.519c0 24.474-1.165 47.491-3.496 69.052s-6.847 42.538-13.548 62.934c-6.701 20.395-15.588 40.79-26.659 61.185s-25.348 42.247-42.83 65.556l32.341 27.096c58.272-38.46 101.393-82.454 129.364-131.986s41.956-106.637 41.956-171.319c0-61.186-10.052-117.855-30.156-170.008s-46.18-99.208-78.23-141.164c-32.050-41.956-68.178-78.23-108.386-108.823s-80.706-55.213-121.497-73.86l-21.852 28.845z" />
<glyph unicode="&#xe918;" glyph-name="widgets" d="M0 223.531l496.589-287.531v421.315l-496.589 287.608v-421.392zM894.528 733.679v-44.388c0-32.912-62.792-59.587-140.353-59.587-77.46 0-140.25 26.674-140.25 59.587v73.424h0.435c4.71-31.013 65.403-55.632 139.841-55.632 77.562 0 140.353 26.7 140.353 59.458 0 32.938-62.792 59.535-140.353 59.535-6.194 0-12.261-0.206-18.2-0.565l-90.309 52.295v-55.864c0-32.912-62.715-59.561-140.25-59.561-48.687 0-91.589 10.526-116.803 26.545-3.584 3.723-7.986 7.266-13.311 10.628-6.578 6.88-10.239 14.428-10.239 22.386v54.092l-87.315-50.524c-6.271 0.308-12.645 0.616-19.121 0.616-77.485 0-140.302-26.597-140.302-59.535 0-32.784 62.817-59.458 140.302-59.458 74.439 0 135.208 24.595 139.918 55.632h0.384v-73.424c0-32.912-62.741-59.587-140.302-59.587-77.485 0-140.302 26.674-140.302 59.587v43.746l-108.074-62.487 499.952-289.382 496.65 287.508-112.349 64.954zM647.252 550.564c0-33.037-62.896-59.755-140.415-59.755s-140.389 26.719-140.389 59.755v73.81h0.41c4.764-31.18 65.482-55.886 139.98-55.886s135.19 24.707 139.954 55.886h0.486v-73.81h-0.026zM523.987 353.774v-417.774l500.013 287.724v417.774l-500.013-287.724zM506.901 840.134c77.605 0 140.376 26.824 140.376 59.933s-62.771 59.933-140.376 59.933c-77.554 0-140.453-26.85-140.453-59.933-0.026-33.109 62.873-59.933 140.453-59.933v0z" />
<glyph unicode="&#xe919;" glyph-name="add" d="M0.010 362.735h426.837v-426.735h170.325l0.068 426.803h426.735v170.359l-426.735 0.068 0.102 426.735h-170.496v-426.803l-426.837 0.068z" />
<glyph unicode="&#xe91a;" glyph-name="text-center" d="M0 874.667h1024v-170.667h-1024v170.667zM170.667 533.333h682.667v-170.667h-682.667v170.667zM0 192h1024v-170.667h-1024v170.667z" />
<glyph unicode="&#xe91b;" glyph-name="text-left" d="M0 874.667h1024v-170.667h-1024v170.667zM0 533.333h682.667v-170.667h-682.667v170.667zM0 192h1024v-170.667h-1024v170.667z" />
<glyph unicode="&#xe91c;" glyph-name="text-right" d="M0 874.667h1024v-170.667h-1024v170.667zM341.333 533.333h682.667v-170.667h-682.667v170.667zM0 192h1024v-170.667h-1024v170.667z" />
<glyph unicode="&#xe91d;" glyph-name="video" d="M1024 703.449v-510.687h-88.249l-206.3 204.633v102.288l206.3 203.769 88.249-0.003zM655.121 209.498c0-9.688-7.829-17.461-17.485-17.461h-620.148c-9.659 0-17.488 7.773-17.488 17.461v477.103c0 9.623 7.829 17.399 17.488 17.399h620.148c9.655 0 17.485-7.776 17.485-17.399v-477.103z" />
<glyph unicode="&#xe91e;" glyph-name="grid-size" d="M513.552 352.427c-49.87 0-90.298 41.261-90.298 92.16s40.428 92.16 90.298 92.16c49.87 0 90.298-41.261 90.298-92.16s-40.428-92.16-90.298-92.16zM254.138 352.427c-49.87 0-90.298 41.261-90.298 92.16s40.428 92.16 90.298 92.16c49.87 0 90.298-41.261 90.298-92.16s-40.428-92.16-90.298-92.16zM769.552 352.427c-49.87 0-90.298 41.261-90.298 92.16s40.428 92.16 90.298 92.16c49.87 0 90.298-41.261 90.298-92.16s-40.428-92.16-90.298-92.16z" />
<glyph unicode="&#xe91f;" glyph-name="show" d="M511.927 143.173c-108.737 0-226.035 49.11-348.61 145.953-90.055 71.171-148.209 141.436-150.633 144.384l-12.684 15.377 12.684 15.374c2.403 2.954 60.571 73.203 150.633 144.418 122.571 96.884 239.825 145.984 348.61 145.984 108.856 0 226.171-49.114 348.746-145.984 90.059-71.198 148.244-141.436 150.701-144.418l12.626-15.374-12.626-15.377c-2.461-2.951-60.629-73.203-150.701-144.384-122.568-96.85-239.893-145.953-348.746-145.953zM511.927 628.827c-98.913 0-179.135-80.52-179.135-179.888 0-99.489 80.225-179.957 179.135-179.957 99.022 0 179.271 80.461 179.271 179.957 0 99.369-80.228 179.888-179.271 179.888zM511.985 380.362c-37.65 0-68.223 30.755-68.223 68.542 0 37.767 30.57 68.504 68.223 68.504 37.65 0 68.268-30.727 68.268-68.504 0-37.801-30.628-68.542-68.268-68.542z" />
<glyph unicode="&#xe920;" glyph-name="hide" d="M227.976 242.139c-21.375 14.158-42.934 29.822-64.659 46.987-90.055 71.171-148.209 141.436-150.633 144.384l-12.684 15.377 12.684 15.374c2.403 2.954 60.571 73.203 150.633 144.418 122.571 96.884 239.825 145.984 348.61 145.984 58.501 0 119.444-14.185 182.334-42.343l245.627 247.68 65.808-61.924-939.686-947.539-65.808 61.924 227.775 229.678zM592.486 609.695c-24.218 12.239-51.583 19.131-80.56 19.131-98.913 0-179.135-80.52-179.135-179.888 0-29.369 6.991-57.081 19.39-81.555l240.304 242.312zM381.123 165.457l104.566 105.44c8.564-1.262 17.325-1.915 26.237-1.915 99.022 0 179.271 80.461 179.271 179.957 0 9.226-0.692 18.29-2.026 27.141l148.797 150.040c7.547-5.631 15.115-11.444 22.703-17.441 90.059-71.198 148.244-141.436 150.701-144.418l12.626-15.374-12.626-15.377c-2.461-2.951-60.629-73.203-150.701-144.384-122.568-96.85-239.893-145.953-348.746-145.953-42.366 0-86.032 7.455-130.803 22.284z" />
<glyph unicode="&#xe921;" glyph-name="mobile" horiz-adv-x="569" d="M512 960h-455.111c-31.419 0-56.889-25.47-56.889-56.889v0-910.222c0-31.419 25.47-56.889 56.889-56.889v0h455.111c31.419 0 56.889 25.47 56.889 56.889v0 910.222c0 31.419-25.47 56.889-56.889 56.889v0zM256 903.111h56.889c15.461-0.602 27.842-12.983 28.443-28.389l0.002-0.056c-0.602-15.461-12.983-27.842-28.389-28.443l-0.056-0.002h-56.889c-15.57 0.342-28.102 12.875-28.444 28.412l-0.001 0.032c0.372 15.558 12.887 28.073 28.409 28.444l0.035 0.001zM284.444-38.4c-32.99 0-59.733 26.744-59.733 59.733s26.744 59.733 59.733 59.733c32.99 0 59.733-26.744 59.733-59.733v0c0-32.99-26.744-59.733-59.733-59.733v0zM512 106.667h-455.111v682.667h455.111z" />
</font>
</defs>
</svg>
